30 Squadron (RAF) Association

Forum: General Forum
Start a New Topic 
   Board|Threaded
Author
Comment
The Lord Of The Rings-The Return Of The King(2003)Hindi-DVDRip-Xvid ~ Smeet




The Lord Of The Rings-The Return Of The King(2003)Hindi-DVDRip-Xvid ~ Smeet > http://tinyurl.com/p7mulfz





















































The Lord Of The Rings-The Return Of The King(2003)Hindi-DVDRip-Xvid ~ Smeet, ghost rider 3 full movie


97ffa81d91
We manually verify comments and will ban IPs that try to mess with us.). Add a commentName lease login or sign up first to post a comment.Comment No adverts, URLs or anything bad allowed. Description ======================================================= = The Lord of the Rings: The return of the king(2003) = ======================================================= ############################################################################## GENERAL INFORMATION =================== Format : AVI Format/Info : Audio Video Interleave Format profile : OpenDML File size : 1.18 GiB Duration : 4h 8mn Overall bit rate : 681 Kbps Language : Hindi, Urdu (Indian/pakistani viewrs) SUBTITLE : NO GENRE : Action Adventure Fantasy IMDB LINK : IMDB RATING : 8.8/10 RIPPER : SMEET ############################################################################## ############################################################################## Video Format : MPEG-4 Visual Format settings, Matrix : Default (H.263) Codec ID : XVID Codec ID/Hint : XviD Duration : 4h 8mnn Width : 592 pixels Height : 240 pixels Display aspect ratio : 2.467 Frame rate : 29.970 fps Resolution : 24 bits Colorimetry : 4:2:0 Scan type : Progressive Bits/(Pixel*Frame) : 0.129 Stream size : 974 MiB (81%) Writing library : XviD 1.2.1 (UTC 2008-12-04) rter. TORRENT SUMMARY. Status:This torrent has NOT been verified.Category:MoviesSize:1.2 GB in 2 filesGrabbed On:14-05-2010 from a torrent sourceSwarm:0 Seeds & 0 PeersVote:No votes yet.

login / register Community blog FAQ Browse latest Search Advanced search +7 0 report fake The Lord of the Rings-The return of the king(2003)Hindi-DVDRip-Xvid Smeet seeders: 0 leechers: 0 Download torrent Added on May 5, 2009 in Movies Downloaded 10 times. . The Lord Of The Rings-The Return Of The King(2003)Hindi-DVDRip-Xvid Smeet. ############################################################################## Audio Format : MPEG Audio Format version : Version 1 Format profile : Layer 3 Codec ID : 55 Codec ID/Hint : MP3 Duration : 4h 8mn Bit rate mode : Constant Bit rate : 128 Kbps Channel(s) : 2 channels Sampling rate : 48.0 KHz Resolution : 16 bits Stream size : 227 MiB (19%) Alignment : Aligned on interleaves Interleave, duration : 927 ms (27.79 video frames) Interleave, preload duration : 216 ms Title : ll T80 20ch 192Kbps DELAY 0ms Writing library : LAME3.98r Encoding settings : -m j -V 4 -q 2 -lowpass 17 -b 128 ############################################################################## . Main Technical Trailer Comments 3 Movie: The Lord of the Rings: The Return of the King IMDB link: 0167260 Detected quality: DVDRip IMDB rating: 8.9 (508,343 votes) Genres: Action, Drama, Adventure, Fantasy add The Lord of the Rings: The Return of the King to bookmarks Release date: 17 December 2003 Language: Hindi Cast: Liv Tyler, Sean Astin, Sean Bean, Brad Dourif, Ian Holm, Christopher Lee, Elijah Wood, Cate Blanchett, Peter Jackson, Viggo Mortensen and others Available in versions: 1080p720pBlu-RayBDRipHDRiPDVDDVDRipx264iPhone The Lord of the Rings-The return of the king(2003)Hindi-DVDRip-Xvid Smeet (Size: 1.18 GB) smeet.nfo 6.9 KB The Lord of the Rings-The return of the king(2003)Hindi-DVDRip-Xvid Smeet.avi 1.18 GB Description ======================================================= = The Lord of the Rings: The return of the king(2003) = ======================================================= ############################################################################## GENERAL INFORMATION =================== Format : AVI Format/Info : Audio Video Interleave Format profile : OpenDML File size : 1.18 GiB Duration : 4h 8mn Overall bit rate : 681 Kbps Language : Hindi, Urdu (Indian/pakistani viewrs) SUBTITLE : NO GENRE : Action Adventure Fantasy IMDB LINK : IMDB RATING : 8.8/10 RIPPER : SMEET ############################################################################## ############################################################################## Video Format : MPEG-4 Visual Format settings, Matrix : Default (H.263) Codec ID : XVID Codec ID/Hint : XviD Duration : 4h 8mnn Width : 592 pixels Height : 240 pixels Display aspect ratio : 2.467 Frame rate : 29.970 fps Resolution : 24 bits Colorimetry : 4:2:0 Scan type : Progressive Bits/(Pixel*Frame) : 0.129 Stream size : 974 MiB (81%) Writing library : XviD 1.2.1 (UTC 2008-12-04) rter. Latest Searches english essentials justnow Superman XXX: A Porn Parody justnow asia lovely justnow carrera infernal justnow transformers justnow bangbus veronica justnow Lovers on the Sun justnow sweet back justnow Vicious justnow vray 1.60 justnow young girl hentai justnow . DOWNLOAD OPTIONS. V6by nidhiayri 9min.ago EDM RG Request Threadby jas1991 10min.ago --> Latest News May'14 Updatesby KickassTorrents 1monthago April'14 Updatesby KickassTorrents 2monthsago March upd.1 - Uploader rules fix and Torrents Day 2014by KickassTorrents 3monthsago --> Blogroll The Measure of a Manby Aphasiac 5hoursago Question number (282)by man2014now 17hoursago Books Are Our Best Friends But Sometimes . Select Your Language English Afrikaans Basque Bengali Bosnian Chinese Simplified Croatian Czech Danish Dutch Filipino Finnish French Georgian German Greek Hindi Hungarian Indonesian Italian Lithuanian Malaysian Norwegian Pirate Polish Portuguese Romanian Russian Serbian Serbian-Cyrillic Slovak Spanish Swedish Telugu Turkish . Friends Links Torrents.to Torrent Downloads TorrentReactor Torrent Finder .

xlive dll street fighter x tekkenNotre-Dame de Paris [FLAC][FS]dayana lsm 06download majalah play boy indonesiagta 4 psp download isoxforce keygen maya 2013 x64sex video ng piskal at kalaguyong abogada, kumalat na sa internet target=free theory and practice of counseling and psychotherapy 9th edition pdfChicken Soup for the Teenage Soul II.zipangels and demons ebook free download-adds

Email